User log in
User registration
Registrations are closed. If you have an invitation code, click here.
Username: lost username?
Password: lost pass?
  Resend activation email
Details for The Wild Bunch (1969)[BDRip 1080p by alE13 AC3[Lektor i Napi
Created by Ratio: 28.25alE13 3 weeks ago
Movies : Western : HD 1080p / 1080i : English


http://www.imdb.com/title/tt0065214/
http://www.filmweb.pl/film/Dzika+banda-1969-31972

Plik zawiera Sample.

re?yseria: Sam Peckinpah
scenariusz: Walon Green, Sam Peckinpah
premiera: 18-06-1969
produkcja: USA
gatunek: Western
muzyka: Jerry Fielding
zdj?cia: Lucien Ballard
czas: 2h 24mn

opis:

An aging group of outlaws look for one last big score as the "traditional" American West
is disappearing around them.

Miasteczko na pograniczu Meksyku i USA, rok 1913. Pike Bishop i jego banda specjalizuj?
si? w okradaniu poci?g贸w i budynk贸w kolei. Podczas jednego z napad贸w okazuje si?, ?e wpadli
w pu?apk? zastawion? przez wynaj?tych przez kolej ?owc贸w nagr贸d pod dow贸dztwem dawnego
przyjaciela Bishopa, Thorntona, kt贸remu w?a?ciciele kolei za?atwili wcze?niejsze zwolnienie
z wi?zienia.






obsada:

William Holden , Ernest Borgnine, Robert Ryan

dane techniczne:

The Wild Bunch (1969)-alE13.mkv
Format : Matroska
Format version : Version 4 / Version 2
File size : 8.10 GiB
Duration : 2 h 24 min
Overall bit rate : 8 003 kb/s
Movie name : The Wild Bunch (1969)-alE13
Encoded date : UTC 2017-01-04 13:08:45
Writing application : mkvmerge v8.1.0 ('Psychedelic Postcard') 64bit
Writing library : libebml v1.3.1 + libmatroska v1.4.2
Cover : Yes
Attachments : cover.jpg

Video
ID : 1
Format : AVC
Format/Info : Advanced Video Codec
Format profile : [email protected]
Format settings, CABAC : Yes
Format settings, ReFrames : 2 frames
Format settings, GOP : M=3, N=24
Codec ID : V_MPEG4/ISO/AVC
Duration : 2 h 24 min
Bit rate : 6 913 kb/s
Width : 1 916 pixels
Height : 792 pixels
Display aspect ratio : 2.40:1
Frame rate mode : Constant
Frame rate : 23.976 (24000/1001) FPS
Color space : YUV
Chroma subsampling : 4:2:0
Bit depth : 8 bits
Scan type : Progressive
Bits/(Pixel*Frame) : 0.190
Stream size : 6.99 GiB (86%)
Title : The Wild Bunch (1969)-alE13
Writing library : x264 core 142
Default : Yes
Forced : No
Color range : Limited
Color primaries : BT.709
Transfer characteristics : BT.709
Matrix coefficients : BT.709

Audio #1
ID : 2
Format : AC-3
Format/Info : Audio Coding 3
Mode extension : CM (complete main)
Format settings, Endianness : Big
Codec ID : A_AC3
Duration : 2 h 24 min
Bit rate mode : Constant
Bit rate : 640 kb/s
Channel(s) : 6 channels
Channel positions : Front: L C R, Side: L R, LFE
Sampling rate : 48.0 kHz
Frame rate : 31.250 FPS (1536 spf)
Bit depth : 16 bits
Compression mode : Lossy
Stream size : 663 MiB (8%)
Title : The Wild Bunch (1969)-alE13_AC3
Language : English
Default : No
Forced : No

Audio #2
ID : 3
Format : AC-3
Format/Info : Audio Coding 3
Mode extension : CM (complete main)
Format settings, Endianness : Big
Codec ID : A_AC3
Duration : 2 h 24 min
Bit rate mode : Constant
Bit rate : 448 kb/s
Channel(s) : 6 channels
Channel positions : Front: L C R, Side: L R, LFE
Sampling rate : 48.0 kHz
Frame rate : 31.250 FPS (1536 spf)
Bit depth : 16 bits
Compression mode : Lossy
Stream size : 464 MiB (6%)
Title : The Wild Bunch (1969)-alE13_AC3
Language : Polish
Default : Yes
Forced : No

Text #1
ID : 4
Format : UTF-8
Codec ID : S_TEXT/UTF8
Codec ID/Info : UTF-8 Plain Text
Duration : 2 h 21 min
Bit rate : 29 b/s
Count of elements : 1009
Stream size : 30.6 KiB (0%)
Title : The Wild Bunch (1969)-alE13
Language : Polish
Default : Yes
Forced : No

Text #2
ID : 5
Format : UTF-8
Codec ID : S_TEXT/UTF8
Codec ID/Info : UTF-8 Plain Text
Duration : 2 h 22 min
Bit rate : 37 b/s
Count of elements : 1160
Stream size : 39.1 KiB (0%)
Title : The Wild Bunch (1969)-alE13
Language : English
Default : No
Forced : No

Menu
00:00:00.000 : en:01. Credits; If They Move
00:06:32.767 : en:02. Temperance Parade
00:10:08.566 : en:03. Blowin' This Town To Hell
00:14:28.326 : en:04. Blazing Scorpions
00:15:25.133 : en:05. Better 'n a Hog-Killin'
00:18:15.261 : en:06. Dear, Dead Departed
00:20:13.838 : en:07. Judas Goat
00:22:41.234 : en:08. Across the Border
00:23:34.580 : en:09. Dreaming of Washers
00:31:02.611 : en:10. Being Sure Is My Business
00:34:16.012 : en:11. Learning from Being Wrong
00:36:34.442 : en:12. When You Side With a Man
00:41:44.335 : en:13. Turning Back
00:42:52.152 : en:14. Aqua Verde
00:48:12.098 : en:15. Farewell to the Bunch
00:50:17.848 : en:16. The General Drives In
00:52:52.294 : en:17. Angel's Woman No More
00:59:42.579 : en:18. Target: An Arms Shipment
01:03:45.488 : en:19. Rest and Recreation
01:09:22.575 : en:20. Lost Love; This Time
01:11:56.646 : en:21. Catching a Train
01:17:12.169 : en:22. Wild Bunch Express
01:21:45.776 : en:23. Backtrack
01:24:24.268 : en:24. Border Bridge Standoff
01:27:23.029 : en:25. Tipping Hat And Bridge
01:28:27.761 : en:26. Bottom of the Bottle
01:32:02.600 : en:27. Mapache Under Attack
01:35:19.923 : en:28. We're After Men
01:36:50.095 : en:29. Angel's Friend
01:41:18.572 : en:30. Robbery-Proof Guns
01:46:22.001 : en:31. Trust Between Partners
01:49:07.374 : en:32. Getting Sykes Riled
01:49:56.507 : en:33. Machine Gun Mayhem
01:52:20.651 : en:34. Angel Betrayed
01:55:32.968 : en:35. Who You Give Your Word To
02:00:10.995 : en:36. Dragged In The Dust
02:04:09.108 : en:37. Let's Go, Why Not?
02:08:16.272 : en:38. Walk Toward a Showdown
02:10:41.751 : en:39. "We Want Angel"
02:12:24.395 : en:40. Shooting Starts
02:13:35.591 : en:41. Seizing the Machine Gun
02:14:53.877 : en:42. Death of the Bunch
02:17:04.049 : en:43. Taking Stock
02:19:13.512 : en:44. Death Echoes in the Wind
02:21:17.636 : en:45. Some Work To Do
02:22:35.088 : en:46. Last Glimpse; Cast List
Facebook Twitter Google Digg Reddit LinkedIn StumbleUpon Email
Show Demonoid some love with BitCoin: 1DNoidJdotDyNMm5CxA8XfbgCH8KsCjco3 How to get BitCoins?
Size: 8.16 GB  
Download this torrent
Extra information
Tracker: http://auratorrent.pl:8089/announce
Files described inside the torrent: 13 [ Click here to show the full list ]
Comments

No comments posted yet

Disclaimer: .None of the files shown here are actually hosted or transmitted by this server. The links are provided solely by this site's users. The site moderation is also a service provided by the site's users. The administrator of this site (dnoid.me) cannot be held responsible for what its users post, or any other actions of its users. You may not use this site to distribute or download any material when you do not have the legal rights to do so. It is your own responsibility to adhere to these terms.

By using this site you indicate your agreement to our terms and conditions
   
Link to us | Contact us | API | Twitter: @DemonoidP2P | Feeds/RSS | DMCA
This site and the Demonoid logo are Copyright © 2017 Demonoid. All rights reserved.

Show Demonoid some love with BitCoin: 1DNoidJdotDyNMm5CxA8XfbgCH8KsCjco3