User log in
User registration
Registrations are closed. If you have an invitation code, click here.
Username: lost username?
Password: lost pass?
  Resend activation email
Details for USS Indianapolis Men Of Courage 2016 BRrip 2CH Vorbis-OmiTub
Created by Ratio: 1.00Omifast 3 weeks ago
Movies : Action : Other quality : English


R | 2h 8min | Action, War | 14 October 2016 (USA)

The harrowing true story of the crew of the USS Indianapolis, who were stranded in the Philippine Sea for five days after delivering the atomic weapons that would eventually end WWII. As they awaited rescue, they endured extreme thirst, hunger, and relentless shark attacks.

Stars: Nicolas Cage, Tom Sizemore, Thomas Jane

YouTube Trailer: https://youtu.be/ZDPE-NronKk

Sample Included



Find us on:

Facebook: https://www.facebook.com/OmiTube.Online

YouTube: https://www.youtube.com/user/OmikronChannel

OmiTube Online Movies: http://bit.ly/OmiTubeNet

Thanks


General
Unique ID : 267342841932785052367466624013790253226 (0xC9205BC4A9CC648B391C5DCF3B7E90AA)
Complete name : USS Indianapolis Men Of Courage 2016 BD.mkv
Format : Matroska
Format version : Version 2
File size : 550 MiB
Duration : 2 h 9 min
Overall bit rate mode : Variable
Overall bit rate : 591 kb/s
Movie name : OmiTube Online Movies
Writing application : HandBrake rev0 2014102499
Writing library : Lavf56.1.0 / Lavf56.1.0
SUMMARY : OmiTube Online Movies

Video
ID : 1
Format : AVC
Format/Info : Advanced Video Codec
Format profile : [email protected]
Format settings, CABAC : Yes
Format settings, ReFrames : 16 frames
Codec ID : V_MPEG4/ISO/AVC
Duration : 2 h 9 min
Bit rate : 500 kb/s
Width : 720 pixels
Height : 300 pixels
Display aspect ratio : 2.40:1
Frame rate mode : Constant
Frame rate : 30.068 FPS
Original frame rate : 30.000 FPS
Color space : YUV
Chroma subsampling : 4:2:0
Bit depth : 8 bits
Scan type : Progressive
Bits/(Pixel*Frame) : 0.077
Stream size : 464 MiB (84%)

Audio
ID : 2
Format : Vorbis
Format settings, Floor : 1
Codec ID : A_VORBIS
Duration : 2 h 9 min
Bit rate mode : Variable
Bit rate : 80.0 kb/s
Channel(s) : 2 channels
Sampling rate : 48.0 kHz
Compression mode : Lossy
Stream size : 74.3 MiB (14%)
Title : Stereo
Writing application : HandBrake
Writing library : libVorbis (Turpak?¤r?¤jiin) (20140122 (Turpak?¤r?¤jiin))
Language : Unknown
Default : Yes
Forced : No


Facebook Twitter Google Digg Reddit LinkedIn StumbleUpon Email
Show Demonoid some love with BitCoin: 1DNoidJdotDyNMm5CxA8XfbgCH8KsCjco3 How to get BitCoins?
Size: 555.08 MB  
Download this torrent
Extra information
Tracker: udp://inferno.demonoid.pw:3393/announce
Files described inside the torrent: 7 [ Click here to show the full list ]
Comments

No comments posted yet

Disclaimer: .None of the files shown here are actually hosted or transmitted by this server. The links are provided solely by this site's users. The site moderation is also a service provided by the site's users. The administrator of this site (dnoid.me) cannot be held responsible for what its users post, or any other actions of its users. You may not use this site to distribute or download any material when you do not have the legal rights to do so. It is your own responsibility to adhere to these terms.

By using this site you indicate your agreement to our terms and conditions
   
Link to us | Contact us | API | Twitter: @DemonoidP2P | Feeds/RSS | DMCA
This site and the Demonoid logo are Copyright © 2017 Demonoid. All rights reserved.

Show Demonoid some love with BitCoin: 1DNoidJdotDyNMm5CxA8XfbgCH8KsCjco3